音楽CDで完璧のコピーを目指そう

レス数が900を超えています。1000を超えると表示できなくなるよ。
1名無しさん◎書き込み中03/01/05 10:51ID:LuK/1SWF
CDイメージが良いのか
CDイメージでもどの形式は駄目とか
それともWAVE形式などで取り込むのが良いのか
その辺はっきりしたほうが…。
と、思いましてたてますた。

884名無しさん◎書き込み中2015/01/18(日) 03:19:03.84ID:9cJfQ+0q
>>883さん
両方使ってみました。おすすめしていただき、ありがとうございます。
バックアップ作業にハマってしまい、外付け買いましたw

EACはMATSHITA UJ240ESと相性が悪いのか、焼けたり焼けなかったりで仕方なくimgburnで。
オフセット値は見つからず断念しました。他力本願スミマセン…

CDMはとにかく不安になるくらい使いやすかった。
過去ログ見ましたがCDの状態で使いわけるそうで。とりあえず両方でバックアップとってます…

885名無しさん◎書き込み中2015/04/15(水) 11:55:46.66ID:xg5D+znE
ズレが生じたりその他いろいろあるので完璧なコピーなど到底無理だ
出来る人はその方法を教えて欲しい
ただし1サンプルでも前後したらだめなんだぞ

886名無しさん◎書き込み中2015/04/15(水) 14:31:02.89ID:xg5D+znE
CD ManiplatorもWMPもEACもデジタルデータ自体まったく同一だから
音もまったく変わらないよ
嘘だと思ったら
http://efu.jp.net/soft/wc/wc.htmlでWAVコンペアをダウンロードして
デジタルデータを比較してみ

887名無しさん◎書き込み中2015/04/15(水) 23:28:36.05ID:Zj4qF1Hp
うん、そうだね

8888882015/04/16(木) 09:09:27.79ID:maD2LrI1
888ゲト
ありがとさん

889名無しさん◎書き込み中2015/04/16(木) 10:04:03.10ID:maD2LrI1
完璧なコピーとは、再度リッピングしたときにWAVデータの
ゼロサンプルの先頭、末尾の数値が原盤のものと比較して全トラック完全に
一致していなければならない
何回もトライしているがこれだけはどうにもならない
これが出来る人はその方法を教えて欲しい
たぶん無理だけどね

890名無しさん◎書き込み中2015/04/19(日) 16:37:05.74ID:zmWJY2fm
めんどくせーからfoobarでいいや

891名無しさん◎書き込み中2015/04/19(日) 17:45:54.82ID:jvBtZECn
バイナリが一致していても音が違うってのは結局プラシーボなのかな?

892名無しさん◎書き込み中2015/04/20(月) 00:31:45.62ID:BUmfPhV/
俺は聞き分け出来る気はしないけど
プラセボじゃないと思うよ

893名無しさん◎書き込み中2015/04/21(火) 10:05:47.53ID:GIPFv+9I
人の耳は1回目、2回目、3回目と回数を聴いていると高音域が聞こえにくくなる
1回目の音はクリアな音でも3回目の音はなんか籠った音に聞こえる
これが聴き比べた時に音が違う原因と考えていいと思う
実際にスピーカーから出ている音自体は変わらないんだけどね

894名無しさん◎書き込み中2015/04/22(水) 09:12:18.90ID:fAQqq2/k
確かに
てか可聴領域を超えるか超えないかの瀬戸際の高周波の音がそうなる

895名無しさん◎書き込み中2015/04/24(金) 10:40:12.66ID:SZwbziec
EACで焼くとファイナライズされないよー
てか設定の仕方がわかんね
だからインフラレコーダーでファイナライズだけ別にしている
ファイナライズしないと音楽CDにならないからね

896名無しさん◎書き込み中2015/05/10(日) 19:38:26.45ID:CnNg6pBO
サガフロのサントラのdisc3の隠しトラックをリッピングできて、Windows7でも動作するソフトってない?
使用ドライブは、Plextor Premium2を予定

CD-Ripperが欲しいけど、infoseek iswebのサービス終了で入手できなくなってしまったし(というか動作するか不明)

897名無しさん◎書き込み中2015/05/12(火) 00:13:06.09ID:GPzYFadU

898名無しさん◎書き込み中2015/05/12(火) 00:37:15.29ID:UXHTu3uA
サガフロのサントラのdisc3の隠しトラックのリッピングは結構難しい
LBAマイナス領域にも音声が含まれている

899名無しさん◎書き込み中2015/05/12(火) 21:38:49.15ID:fqEKI61W
EACでいいじゃん

900名無しさん◎書き込み中2015/05/13(水) 08:31:37.65ID:a94x9kIK
CD Maniplatorで正しいTOCとギャップ情報の取得をさせたのに
焼いたCDRを再リッピングするとゼロサンプルの先頭、末尾の数値が
原盤に比べて全トラックででたらめな値になっていた
あまりにも頭にきたのでその焼いたCDRを近所のコンビニのゴミ箱に叩き捨てた
IMGファイルは訳のわからない形式だしこのソフトは使えない
結局EACで焼くのがいいのかな?それとも絶望的なのかな?

901名無しさん◎書き込み中2015/05/13(水) 14:28:28.08ID:a94x9kIK
EACで書き込みオフセットを+667に設定して焼いたCDRを再度リッピングすると
14トラック全てでゼロサンプルの先頭、末尾の数値が完全に一致した
もちろんバイナリーも全て一致した
しかも隠しトラックまでもが忠実に再現されている
これぞ俺が求めていた完璧なコピーだぁぁぁ
EAC最強!!!他のソフトはどれもクズ
但し各ドライブによって書き込みオフセットは変わるので注意が必要
書き込みオフセットを調べるのが少々面倒かも知れない

902名無しさん◎書き込み中2015/05/13(水) 21:10:56.27ID:K7f4yteS
音で選べ

903名無しさん◎書き込み中2015/05/14(木) 00:20:46.47ID:jNpTA6Bs
>>901
>EAC最強!!!他のソフトはどれもクズ

>>840

904名無しさん◎書き込み中2015/05/14(木) 09:26:21.18ID:ZnOcx27N
先日EACで焼いたCDRをEACにかけてCUEシートを原盤のものと比較したところ
CATALOGコードやINDEX00は一致したがISRC JPCコードが抜けている
原盤のものには存在しているのにCDRに焼いたものには無い
まあ焼くときにエラーが出るのでQUEシートの
ISRC JPCコードは削除したから仕方ないか
しかしこれでは完璧なコピーではないのでそのCDRは燃えるゴミとして出した
ISRC JPCコードがQUEシートにあると書き込みエラーになるのはなぜ?

905名無しさん◎書き込み中2015/05/14(木) 10:01:38.54ID:ZnOcx27N
1トラック目のISRC JPCコードだけをCUEシートから外せば
書き込みエラーにならないのだが、全トラック存在しないと意味がない

906名無しさん◎書き込み中2015/05/14(木) 10:51:45.84ID:ZnOcx27N
誰か解る人がいたら教えて欲しい

907名無しさん◎書き込み中2015/05/14(木) 11:44:51.20ID:ZnOcx27N
自己解決!
EACでのCD書き込みにCD-DAOを使用するにチェックを入れると書き込めた

908名無しさん◎書き込み中2015/05/14(木) 13:34:29.25ID:ZnOcx27N
ダメだ!
先頭のオフセットが395もズレている
もう3枚お釈迦だよ

909名無しさん◎書き込み中2015/05/14(木) 16:53:51.51ID:LsHnnM43
>>901
それは-30の数値?

910名無しさん◎書き込み中2015/05/14(木) 17:19:13.42ID:+/vZXGsA
>>907
そりゃCD焼くんだから、CDだお!にチェック入れないとダメに決まってるだろう。

911名無しさん◎書き込み中2015/05/20(水) 11:20:50.47ID:2mvUFKKM
俺の糞ドライブだとCDだお!にチェック入れると
書き込みオフセットが無効になるようだ
先頭ゼロサンプルの数値が原盤のものと比べて395も多くなる
CUEシートから先頭トラック(1トラック目)だけISRC コードを削除して
CDだお!のチェックを外して書き込みオフセットを+667に設定して焼くと
14トラック全てでゼロサンプルの先頭、末尾の数値が完全に一致
もちろん全てのトラックのバイナリーも完全に一致
当然先頭1トラック目だけISRC コードがなくなるので完璧なコピーではない
これ以上手の施しようがない。ここまででさらに7枚のCDRをお釈迦にしたよ
もし、先頭1トラック目のISRC コードも付加した完璧なコピーが
出来るよと言う人がいたらその方法を教えて欲しい

912名無しさん◎書き込み中2015/05/20(水) 12:41:01.28ID:2mvUFKKM
>>909
-30の数値とは何を示す数値なのか俺には解らない
まだ初心者だからね。教えて欲しい

913名無しさん◎書き込み中2015/05/21(木) 01:01:36.48ID:PF0vRA7J
CDなのかお?

914名無しさん◎書き込み中2015/05/22(金) 10:59:24.35ID:0V1j61xs
音楽CDのコピーがこんなにムズいものとは思わなかった
データCDなら完璧なコピーなんて超簡単なのに
もう絶望的だな

915名無しさん◎書き込み中2015/05/23(土) 18:15:35.79ID:/JSfwaeT
コピーしたCDをリッピングすると数枚に1枚はエラー訂正が働いて読み込みがスローになる
オリジナルCDとコピーCDのバイナリを比較するとその部分が一致しない
内臓スリムドライブと外付けドライブ、どっちで焼いても数枚に一枚はそうなるんだけど
俺だけかな? 誘電のCD-Rに問題があるとは思えないのだが。

916名無しさん◎書き込み中2015/05/30(土) 07:49:33.86ID:0tO+7/tR
反射面のアルミに穴があいたCD
何台かのブルーレイ、DVDドライブでエラー出てダメだったけど
CRD-BP1700を物置から引っ張り出してUSBアダプター
かまして吸ったらうまくいった。

917名無しさん◎書き込み中2015/05/30(土) 07:57:53.12ID:0tO+7/tR
ちなみに当時ヤマハのオーディオマスター機すでに持ってたんで
CRD-BP1700はほとんど使ってなかった。何で買ったんだろう…

918名無しさん◎書き込み中2015/10/16(金) 22:26:56.01ID:u+YAk07C
ノンストップのCDをCDRにコピーすると曲の間は切れますか?

919名無しさん◎書き込み中2015/10/17(土) 22:00:24.39ID:FyENTQR+
ごほめ

920名無しさん◎書き込み中2015/12/03(木) 17:05:47.10ID:+x1299t6
ビクターの音楽用CD-R ホワイトディスクケース入り10枚
を近所のディスカウントストアで税込799円で購入

日本製と表記してるのですが太陽誘電製でしょうか?

921名無しさん◎書き込み中2015/12/29(火) 18:36:28.05ID:WWP83wsb
誘電なきあとはどうすればいいんやろう?時代遅れとはわかっていながら

922名無しさん◎書き込み中2016/06/13(月) 13:19:10.86ID:OgaHejBc
とあるゲームのCDROMをCDManipulatorでイメージ化して
生成されたcueファイルの中でINDEX 00が記述された部分だけ抜き出した。

TRACK 02 AUDIO
INDEX 00 21:01:52
INDEX 01 21:03:51
TRACK 03 AUDIO
INDEX 00 24:16:66
INDEX 01 24:18:66
TRACK 04 AUDIO
INDEX 00 27:19:36
INDEX 01 27:21:36
TRACK 11 AUDIO
INDEX 00 69:08:46
INDEX 01 46:34:51

923名無しさん◎書き込み中2016/06/13(月) 13:19:35.75ID:OgaHejBc
次に同じゲームのCDROMをDAEMONToolsLiteでイメージ化して
それをDAEMONToolsLiteでマウントしてCDManipulatorで「正しいTOCとギャップ情報の取得」をして、
TOCウインドウからCue-Sheetを保存して
生成されたcueファイルの中でINDEX 00が記述された部分だけ抜き出した。

TRACK 02 AUDIO
INDEX 00 21:01:51
INDEX 01 21:03:51
TRACK 03 AUDIO
INDEX 00 24:16:66
INDEX 01 24:18:66
TRACK 04 AUDIO
INDEX 00 27:19:36
INDEX 01 27:21:36

これってプリギャップの取得はDAEMONToolsLiteのほうが優れているってことでしょうか?
DAEMONToolsLiteでのイメージ化はどの程度の精度なんでしょうか?

924名無しさん◎書き込み中2016/06/13(月) 20:45:12.25ID:GBKnhDob
どっちかの取得方法が間違ってる?

925名無しさん◎書き込み中2016/07/06(水) 12:54:19.22ID:EAVxm6TX
今時の人は何使って焼いてるの?
CD ManiplatorはWindows10になってからはエラーが多くて。

926名無しさん◎書き込み中2016/09/09(金) 14:37:33.98ID:XrE2S/O0
ご長寿スレですね。
でも役に立ちます。音楽に特化した外付けのCDドライブも新しい製品が出ません。
これ以上、よくなる可能性がないから開発しないのか売れないから作らないのか。
PCで完璧CDコピーってそろそろ限界?

927名無しさん◎書き込み中2016/10/08(土) 00:28:41.88ID:S+tquxva
昔は焼いたりリップする時に余計なソフトを起動させると音質が劣化すると言われていたので
黙して待っていたが、今はもう2chやりながら音楽聴きながらつべみながらともうね。でなけりゃやってられんな

928名無しさん◎書き込み中2016/10/08(土) 12:03:56.17ID:gOJ0Tlj3
速度落とすとエラー吐かなくなるみたいなことはあるしそういう意味じゃ間違ってもないんじゃね

929名無しさん◎書き込み中2017/01/06(金) 17:23:06.11ID:+UF1+rL9
悪いひとたちがやって来て
みんなを殺した

理由なんて簡単さ
そこに弱いひとたちがいたから

女達は犯され
老人と子供は燃やされた

悪いひとたちはその土地に
家を建てて子供を生んだ

そして街ができ
悪いひとたちの子孫は増え続けた


朝鮮進駐軍 関東大震災 日本人虐殺
https://goo.gl/vX3ERl
https://youtu.be/Kgp4ZCK6sW4
https://youtu.be/1yjRBMVEKFs
https://youtu.be/XPywXIvckI8
https://www.youtube.com/watch?v=dCEJ7TUY06w

930名無しさん◎書き込み中2017/04/25(火) 20:43:30.92ID:/yHvGlF1
FalvaleのCD-Ripper
持ってる人いない?

931名無しさん◎書き込み中2017/12/10(日) 22:12:04.85ID:InIGScKY
おなじみのサガフロのサントラ Disc3の隠しトラックをリッピングしたいんだけど
dBpowerampを使って読み込むと2:12くらいのトラックを認識するんだが
色々調べた中では2:14〜2:15くらいのトラックがになるってのが正しいんだよな?
この約2秒程度が読み込めていないのはドライブによる影響なんだろうか?
ちなみに使ってるドライブはPIONEERのBDR-208。
誰か上手く出来てる人いないかな

932名無しさん◎書き込み中2018/01/10(水) 02:21:13.77ID:c5TpJNPe
すみません。CDをコピーしようと中身はを見てみると音源がMP3でした。CDのレーベルにはcompact disc+ DIGITAL AUDIOのロゴがあるのですが、MP3の場合もあるのでしょうか?
ロゴがあるものはオーディオCDだと思っていましたが違いますでしょうか?

933名無しさん◎書き込み中2018/02/06(火) 20:03:16.33ID:gdHf+6Mb
僕の知り合いの知り合いができたパソコン一台でお金持ちになれるやり方
役に立つかもしれません
グーグル検索⇒『金持ちになりたい 鎌野介メソッド』

MO5MQ

934名無しさん◎書き込み中2018/06/04(月) 01:16:38.98ID:KV9xuhd5
VS2L3

新着レスの表示
レス数が900を超えています。1000を超えると表示できなくなるよ。
レスを投稿する